Jump to content
  • 0
Sign in to follow this  
orphen92

jeu Saturn qui se lancent comme des cd de musique (retroarch-Yabause)

Question

Hello,

Je possède plusieurs jeux sur saturn qui fonctionnent bizarrement sur retroarch (Avec YAbause).
EN effet lorsque le jeu ce lance l’émulateur penses que c'est un cd de musique et ne lance pas le jeu mais essaye de lire les pistes.

Voici ce que j'ai dans mes .cue
 

FILE "Casper (Europe) (En,Fr,De) (Track 1).bin" BINARY
  TRACK 01 MODE1/2352
    INDEX 01 00:00:00
FILE "Casper (Europe) (En,Fr,De) (Track 2).bin" BINARY
  TRACK 02 AUDIO
    INDEX 00 00:00:00
    INDEX 01 00:02:00
FILE "Casper (Europe) (En,Fr,De) (Track 3).bin" BINARY
  TRACK 03 AUDIO
    INDEX 00 00:00:00
    INDEX 01 00:02:00
FILE "Casper (Europe) (En,Fr,De) (Track 4).bin" BINARY
  TRACK 04 AUDIO
    INDEX 00 00:00:00
    INDEX 01 00:02:00
FILE "Casper (Europe) (En,Fr,De) (Track 5).bin" BINARY
  TRACK 05 AUDIO
    INDEX 00 00:00:00
    INDEX 01 00:02:00
FILE "Casper (Europe) (En,Fr,De) (Track 6).bin" BINARY
  TRACK 06 AUDIO
    INDEX 00 00:00:00
    INDEX 01 00:02:00
FILE "Casper (Europe) (En,Fr,De) (Track 7).bin" BINARY
  TRACK 07 AUDIO
    INDEX 00 00:00:00
    INDEX 01 00:02:00
FILE "Casper (Europe) (En,Fr,De) (Track 8).bin" BINARY
  TRACK 08 AUDIO
    INDEX 00 00:00:00
    INDEX 01 00:02:00


Pouvez vous m'aider ?
C'est très relou :)

Merci par avance

Share this post


Link to post
Share on other sites

1 answer to this question

Recommended Posts

  • 0

Salut, je ne connais pas Retroarch, mais on peut faire par élimination.

Retroarch se sert de Deamon Tool pour lancer les jeux iso?

  -Si c'est le cas, Deamon Tool est-il configuré avec un lecteur cd "dt" où "scsi" ?

Share this post


Link to post
Share on other sites

Join the conversation

You can post now and register later. If you have an account, sign in now to post with your account.

Guest
Answer this question...

×   Pasted as rich text.   Paste as plain text instead

  Only 75 emoji are allowed.

×   Your link has been automatically embedded.   Display as a link instead

×   Your previous content has been restored.   Clear editor

×   You cannot paste images directly. Upload or insert images from URL.

Sign in to follow this  

×
×
  • Create New...